Скачать Ulver - Trolsk Sortmetall 1993-1997 (Limited Box Set) - 2014, (5 CDs), FLAC (image+.cue), lossless торрент

Ulver 1997


Название:Trоlsk Sortmetall
Года произведений: 1993-1997 (Limited Box Set)
Жанр: Black/Folk Metal
Носитель: CD
Страна-производитель диска: Germany
Год издания: 2014
Издатель (лейбл): Century Media Records Ltd.
Номер по каталогу: 9983950
Страна исполнителя (группы): Norway
Аудиокодек: FLAC (*.flac)
Тип рипа: image+.cue
Битрейт аудио: lossless
Наличие сканов в содержимом раздачи: да (front, back & CDs) CD 1: Vargnatt (1993) Продолжительность: 28:55

Треклист:
01. I: Her Begynner Mine Arr
02. II: Tragediens Trone
03. III: Trollskogen
04. IV: Ulverytternes Kamp
05. V: Nattens Madrigal
06. VI: Vargnatt Лог создания рипа Exact Audio Copy V1.0 beta 3 from 29. August 2011
EAC extraction logfile from 20. November 2014, 14:58
Ulver / Trolsk Sortmetall 1993-1997 CD 1-Vargnatt
Used drive : HP DVD Writer 1170d Adapter: 0 ID: 0
Read mode : Secure
Utilize accurate stream : Yes
Defeat audio cache : Yes
Make use of C2 pointers : No
Read offset correction : 6
Overread into Lead-In and Lead-Out : No
Fill up missing offset samples with silence : Yes
Delete leading and trailing silent blocks : No
Null samples used in CRC calculations : Yes
Used interface : Native Win32 interface for Win NT & 2000
Used output format : User Defined Encoder
Selected bitrate : 768 kBit/s
Quality : High
Add ID3 tag : No
Command line compressor : C:\Program Files (x86)\Exact Audio Copy\FLAC\FLAC.EXE
Additional command line options : -V -8 -T "Date=%year%" -T "Genre=%genre%" -T"COMMENT=Ripped by Ungern666" -8 -V %source%
TOC of the extracted CD
Track | Start | Length | Start sector | End sector
---------------------------------------------------------
1 | 0:00.00 | 3:21.41 | 0 | 15115
2 | 3:21.41 | 4:13.16 | 15116 | 34106
3 | 7:34.57 | 4:36.38 | 34107 | 54844
4 | 12:11.20 | 5:41.37 | 54845 | 80456
5 | 17:52.57 | 6:39.67 | 80457 | 110448
6 | 24:32.49 | 4:22.43 | 110449 | 130141
Range status and errors
Selected range
Filename C:\EAC\Ungern666\Ulver - Trolsk Sortmetall 1993-1997 CD 1-Vargnatt.wav
Peak level 95.4 %
Extraction speed 6.2 X
Range quality 100.0 %
Test CRC C101F120
Copy CRC C101F120
Copy OK
No errors occurred
AccurateRip summary
Track 1 not present in database
Track 2 not present in database
Track 3 not present in database
Track 4 not present in database
Track 5 not present in database
Track 6 not present in database
None of the tracks are present in the AccurateRip database
End of status report
==== Log checksum CAFCA4F0FA23CC931B1AB09255C070573CA47F57C41946285BDFC676292DACFD ==== CD 2: Bergtatt: Et Eeventyr I 5 Capitler (1995) Продолжительность: 34:26

Треклист:
01. Capitel I: I Troldskog Faren Vild
02. Capitel II: Soelen Gaaer Bag Aase Need
03. Capitel III: Graablick Blev Hun Vaer
04. Capitel IV: Een Stemme Locker
05. Capitel V: Bergtatt – Ind I Fjeldkamrene Лог создания рипа Exact Audio Copy V1.0 beta 3 from 29. August 2011
EAC extraction logfile from 20. November 2014, 15:42
Ulver / Trolsk Sortmetall 1993-1997 CD 2-Bergtatt
Used drive : HP DVD Writer 1170d Adapter: 0 ID: 0
Read mode : Secure
Utilize accurate stream : Yes
Defeat audio cache : Yes
Make use of C2 pointers : No
Read offset correction : 6
Overread into Lead-In and Lead-Out : No
Fill up missing offset samples with silence : Yes
Delete leading and trailing silent blocks : No
Null samples used in CRC calculations : Yes
Used interface : Native Win32 interface for Win NT & 2000
Used output format : User Defined Encoder
Selected bitrate : 768 kBit/s
Quality : High
Add ID3 tag : No
Command line compressor : C:\Program Files (x86)\Exact Audio Copy\FLAC\FLAC.EXE
Additional command line options : -V -8 -T "Date=%year%" -T "Genre=%genre%" -T"COMMENT=Ripped by Ungern666" -8 -V %source%
TOC of the extracted CD
Track | Start | Length | Start sector | End sector
---------------------------------------------------------
1 | 0:00.00 | 7:56.01 | 0 | 35700
2 | 7:56.01 | 6:36.59 | 35701 | 65459
3 | 14:32.60 | 7:43.57 | 65460 | 100241
4 | 22:16.42 | 4:00.41 | 100242 | 118282
5 | 26:17.08 | 8:09.07 | 118283 | 154964
Range status and errors
Selected range
Filename C:\EAC\Ungern666\Ulver - Trolsk Sortmetall 1993-1997 CD 2-Bergtatt.wav
Peak level 100.0 %
Extraction speed 5.2 X
Range quality 100.0 %
Test CRC 226C2B92
Copy CRC 226C2B92
Copy OK
No errors occurred
AccurateRip summary
Track 1 not present in database
Track 2 not present in database
Track 3 not present in database
Track 4 not present in database
Track 5 not present in database
None of the tracks are present in the AccurateRip database
End of status report
==== Log checksum 3E60C4BBEB060837DD15AC198C46AAEC89E207FC03B4B20145D23BD31BD61182 ==== CD 3: Kveldssanger (1996) Продолжительность: 40:40

Треклист:
01. I: Østenfor Sol Og Vestenfor Maane
02. II: Ord
03. III: Høifjeldsbillde
04. IV: Nattleite
05. V: Kveldssang
06. VI: Naturmystikk
07. VII: A Capella (Sielens Sang)
08. VIII: Hiertets Vee
09. IX: Klædt I Nattens Farver
10. X: Halling
11. XI: Utreise
12. XII: Søfn-ør Paa Alfers Lund
13. XIII: Ulvsblakk
14. XIV: Synen Лог создания рипа Exact Audio Copy V1.0 beta 3 from 29. August 2011
EAC extraction logfile from 20. November 2014, 16:00
Ulver / Trolsk Sortmetall 1993-1997 CD 3-Kveldssanger
Used drive : HP DVD Writer 1170d Adapter: 0 ID: 0
Read mode : Secure
Utilize accurate stream : Yes
Defeat audio cache : Yes
Make use of C2 pointers : No
Read offset correction : 6
Overread into Lead-In and Lead-Out : No
Fill up missing offset samples with silence : Yes
Delete leading and trailing silent blocks : No
Null samples used in CRC calculations : Yes
Used interface : Native Win32 interface for Win NT & 2000
Used output format : User Defined Encoder
Selected bitrate : 768 kBit/s
Quality : High
Add ID3 tag : No
Command line compressor : C:\Program Files (x86)\Exact Audio Copy\FLAC\FLAC.EXE
Additional command line options : -V -8 -T "Date=%year%" -T "Genre=%genre%" -T"COMMENT=Ripped by Ungern666" -8 -V %source%
TOC of the extracted CD
Track | Start | Length | Start sector | End sector
---------------------------------------------------------
1 | 0:00.00 | 3:26.49 | 0 | 15498
2 | 3:26.49 | 0:17.46 | 15499 | 16819
3 | 3:44.20 | 2:15.04 | 16820 | 26948
4 | 5:59.24 | 2:11.32 | 26949 | 36805
5 | 8:10.56 | 1:32.33 | 36806 | 43738
6 | 9:43.14 | 2:55.55 | 43739 | 56918
7 | 12:38.69 | 1:26.24 | 56919 | 63392
8 | 14:05.18 | 3:54.60 | 63393 | 81002
9 | 18:00.03 | 2:51.14 | 81003 | 93841
10 | 20:51.17 | 2:07.55 | 93842 | 103421
11 | 22:58.72 | 2:57.00 | 103422 | 116696
12 | 25:55.72 | 2:37.70 | 116697 | 128541
13 | 28:33.67 | 6:59.40 | 128542 | 160006
14 | 35:33.32 | 5:07.34 | 160007 | 183065
Range status and errors
Selected range
Filename C:\EAC\Ungern666\Ulver - Trolsk Sortmetall 1993-1997 CD 3-Kveldssanger.wav
Peak level 99.9 %
Extraction speed 5.4 X
Range quality 99.9 %
Test CRC B75F306B
Copy CRC B75F306B
Copy OK
No errors occurred
AccurateRip summary
Track 1 not present in database
Track 2 not present in database
Track 3 not present in database
Track 4 not present in database
Track 5 not present in database
Track 6 not present in database
Track 7 not present in database
Track 8 not present in database
Track 9 not present in database
Track 10 not present in database
Track 11 not present in database
Track 12 not present in database
Track 13 not present in database
Track 14 not present in database
None of the tracks are present in the AccurateRip database
End of status report
==== Log checksum CA37CA03FF9CBBBA0B8029D1A95274EDD096D1A5F152A028CC9EDC13F841CFD3 ==== CD 4: Nattens Madrigal - Aatte Hymne Til Ulven I Manden (1997) Продолжительность: 43:56

Треклист:
01. I
02. II
03. III
04. IV
05. V
06. VI
07. VII
08. VIII Лог создания рипа CD 5: Nattens Madrigal - 4 Track Rehearsal, Summer 1995 (1995) Продолжительность: 22:03
Треклист:
01. I (rehearsal)
02. III (rehearsal)
03. V (rehearsal)
04. VI (rehearsal) Лог создания рипа Exact Audio Copy V1.0 beta 3 from 29. August 2011
EAC extraction logfile from 20. November 2014, 16:35
Ulver / Trolsk Sortmetall 1993-1997 CD 5-Nattens Madrigal 4 Track Rehearsal Summer 1995
Used drive : HP DVD Writer 1170d Adapter: 0 ID: 0
Read mode : Secure
Utilize accurate stream : Yes
Defeat audio cache : Yes
Make use of C2 pointers : No
Read offset correction : 6
Overread into Lead-In and Lead-Out : No
Fill up missing offset samples with silence : Yes
Delete leading and trailing silent blocks : No
Null samples used in CRC calculations : Yes
Used interface : Native Win32 interface for Win NT & 2000
Used output format : User Defined Encoder
Selected bitrate : 768 kBit/s
Quality : High
Add ID3 tag : No
Command line compressor : C:\Program Files (x86)\Exact Audio Copy\FLAC\FLAC.EXE
Additional command line options : -V -8 -T "Date=%year%" -T "Genre=%genre%" -T"COMMENT=Ripped by Ungern666" -8 -V %source%
TOC of the extracted CD
Track | Start | Length | Start sector | End sector
---------------------------------------------------------
1 | 0:00.00 | 5:58.53 | 0 | 26902
2 | 5:58.53 | 4:52.51 | 26903 | 48853
3 | 10:51.29 | 4:57.27 | 48854 | 71155
4 | 15:48.56 | 6:15.02 | 71156 | 99282
Range status and errors
Selected range
Filename C:\EAC\Ungern666\Ulver - Trolsk Sortmetall 1993-1997 CD 5-Nattens Madrigal 4 Track Rehearsal Summer 1995.wav
Peak level 100.0 %
Extraction speed 4.7 X
Range quality 100.0 %
Test CRC EAD7F209
Copy CRC EAD7F209
Copy OK
No errors occurred
AccurateRip summary
Track 1 not present in database
Track 2 not present in database
Track 3 not present in database
Track 4 not present in database
None of the tracks are present in the AccurateRip database
End of status report

magnet:?xt=urn:btih:58B17930773C5455E79B01604552F76489729A70
Ulver - Trolsk Sortmetall 1993-1997 (Limited Box Set) - 2014, (5 CDs), FLAC (image+.cue), lossless 4.5 из 5 на основе 723 просмотров, 5 отзывов.

Если вы не видите кнопку СКАЧАТЬ - отключите резалку рекламы у себя в браузере и обновите страницу...

торрент Ulver - Trolsk Sortmetall 1993-1997 (Limited Box Set) - 2014, (5 CDs), FLAC (image+.cue), lossless

1.10 GB
Ulver - Trolsk Sortmetall 1993-1997 (Limited Box Set) - 2014 (38 файлов)
2014 - CD 1-Vargnatt (4 файла)
Ulver 1997 Cover.jpg (17.09 kB)
Ulver 1997 Ulver - Trolsk Sortmetall 1993-1997 CD 1-Vargnatt.cue (799 b)
Ulver 1997 Ulver - Trolsk Sortmetall 1993-1997 CD 1-Vargnatt.flac (189.75 MB)
Ulver 1997 Ulver - Trolsk Sortmetall 1993-1997 CD 1-Vargnatt.log (4.57 kB)
2014 - CD 2-Bergtatt (4 файла)
Ulver 1997 Cover.jpg (16.80 kB)
Ulver 1997 Ulver - Trolsk Sortmetall 1993-1997 CD 2-Bergtatt.cue (777 b)
Ulver 1997 Ulver - Trolsk Sortmetall 1993-1997 CD 2-Bergtatt.flac (226.09 MB)
Ulver 1997 Ulver - Trolsk Sortmetall 1993-1997 CD 2-Bergtatt.log (4.38 kB)
2014 - CD 3-Kveldssanger (4 файла)
Ulver 1997 Cover.jpg (17.07 kB)
Ulver 1997 Ulver - Trolsk Sortmetall 1993-1997 CD 3-Kveldssanger.cue (1.53 kB)
Ulver 1997 Ulver - Trolsk Sortmetall 1993-1997 CD 3-Kveldssanger.flac (217.51 MB)
Ulver 1997 Ulver - Trolsk Sortmetall 1993-1997 CD 3-Kveldssanger.log (6.12 kB)
2014 - CD 4-Nattens Madrigal (4 файла)
Ulver 1997 Cover.jpg (16.96 kB)
Ulver 1997 Ulver - Trolsk Sortmetall 1993-1997 CD 4-Nattens Madrigal.cue (869 b)
Ulver 1997 Ulver - Trolsk Sortmetall 1993-1997 CD 4-Nattens Madrigal.flac (307.20 MB)
Ulver 1997 Ulver - Trolsk Sortmetall 1993-1997 CD 4-Nattens Madrigal.log (4.99 kB)
2014 - CD 5-Nattens Madrigal 4 Track Rehearsal Summer 1995 (4 файла)
Ulver 1997 Cover.jpg (18.23 kB)
Ulver 1997 Ulver - Trolsk Sortmetall 1993-1997 CD 5-Nattens Madrigal 4 Track Rehearsal Summer 1995.cue (655 b)
Ulver 1997 Ulver - Trolsk Sortmetall 1993-1997 CD 5-Nattens Madrigal 4 Track Rehearsal Summer 1995.flac (158.91 MB)
Ulver 1997 Ulver - Trolsk Sortmetall 1993-1997 CD 5-Nattens Madrigal 4 Track Rehearsal Summer 1995.log (4.34 kB)
Scans (3 файла)
Box (8 файлов)
Ulver 1997 001.jpg (5.00 MB)
Ulver 1997 002.jpg (2.40 MB)
Ulver 1997 003.jpg (1.02 MB)
Ulver 1997 004.jpg (1.13 MB)
Ulver 1997 005.jpg (1.24 MB)
Ulver 1997 006.jpg (1.21 MB)
Ulver 1997 007.jpg (4.47 MB)
Ulver 1997 008.jpg (4.23 MB)
CDs (5 файлов)
Ulver 1997 001.jpg (1.51 MB)
Ulver 1997 002.jpg (1.54 MB)
Ulver 1997 003.jpg (1.55 MB)
Ulver 1997 004.jpg (1.62 MB)
Ulver 1997 005.jpg (1.67 MB)
Pics (5 файлов)
Ulver 1997 001.jpg (75.13 kB)
Ulver 1997 002.jpg (18.21 kB)
Ulver 1997 003.jpg (177.95 kB)
Ulver 1997 004.jpg (127.38 kB)
Ulver 1997 005.jpg (107.12 kB)
Проверено 536 428 556 [обновить]

Отзывы к торренту Ulver - Trolsk Sortmetall 1993-1997 (Limited Box Set) - 2014, (5 CDs), FLAC (image+.cue), lossless

Ваш отзыв будет ПЕРВЫМ!
(Быстрый вход)  Ulver 1997

Информация

Посетители, находящиеся в группе Гости, не могут оставлять комментарии к данной публикации.